logo
Международный русскоязычный
торрент-трекер
Menu

Магазин-KorsaRDoublon

Поделиться с друзьями: 
Голосуй и получи дублоны
Рейтинг торрент трекеров - UpTracker.ru

30 дней ночи / 30 Days of Night (2007, ужасы, BDRip-AVC)

Сообщение Gogen » 06 янв 2017, 18:27

#777
Информация о фильме
Название: 30 дней ночи
Оригинальное название: 30 Days of Night
Год выхода: 2007
Жанр: ужасы
Режиссер: Дэвид Слэйд
В ролях: Джош Хартнетт, Мелисса Джордж, Дэнни Хьюстон, Бен Фостер, Марк Бун Джуниор, Марк Рендалл, Эмбер Сейнсбури, Ману Беннетт, Меган Фрэнич, Джоэль Тобек
О фильме:
Каждый год на 30 дней маленький город Бэрроу на Аляске погружается во тьму. Арктическая ночь — вещь вполне нормальная для этих мест. Но вот однажды, шериф городка Олсон начинает подозревать, что на этот раз тридцатидневный сумрак не пройдет так гладко. Вампиры подготавливают кровавый рейд на Бэрроу…

Страна: США, Новая Зеландия
Студия: 30 Days of Night, Columbia Pictures, Dark Horse Entertainment, Ghost House Pictures
Продолжительность: 01:53:06
Перевод: Профессиональный (полное дублированние)
- Профессиональный (многоголосый, закадровый) [Киномания]
- Авторский (одноголосый, закадровый) [Юрий Немахов]
- Авторский (одноголосый закадровый) [Дмитрий Есарёв]
- Авторский (одноголосый закадровый) [Денис Строев]
- Оригинал (Английский)
Субтитры: Русские (полные)R5, Киномания; Английские (полные), (вшитые, отключаемые, srt/UTF-8)
Файл
Формат: MKV
Качество: BDRip-AVC / исх. 30.Days.of.Night.2007.Blu-Ray.1080p (спасибо GarryTom)
Видео: 1152x480 (2.40:1), 23.976 fps, x.264, ~4022 kbps, 0.303 bit/(pixel*frame)
Аудио #1:48 kHz, AC3 Dolby Digital, 3/2 (L,R) ch + LFE, ~448 kbps | Профессиональный (полное дублированние)
Аудио #2:48 kHz, AC3 Dolby Digital, 3/2 (L,R) ch + LFE, ~448 kbps | Профессиональный (многоголосый, закадровый) Киномания
Аудио #3:48 kHz, AC3 Dolby Digital, 3/2 (L,R) ch + LFE, ~448 kbps | Авторский (одноголосый, закадровый) Юрий Немахов
Аудио #4:48 kHz, AC3 Dolby Digital, 3/2 (L,R) ch + LFE, ~448 kbps | Авторский (одноголосый закадровый) Денис Строев
Аудио #5:48 kHz, AC3 Dolby Digital, 3/2 (L,R) ch + LFE, ~448 kbps | Авторский (одноголосый закадровый) Дмитрий Есарёв
Аудио #6:48 kHz, AC3 Dolby Digital, 3/2 (L,R) ch + LFE, ~448 kbps | Оригинал
Cэмпл: Скачать
Исходник

Рип
General
Unique ID : 235209947280680029947707983466362279046 (0xB0F3C9BEDC7640D1B01ED76AC26B9486)
Complete name : D:Video30 Days of Night.2006.BDRip-AVC.WazZzuP.mkv
Format : Matroska
Format version : Version 4 / Version 2
File size : 5.30 GiB
Duration : 1 h 53 min
Overall bit rate : 6 713 kb/s
Movie name : 30 Days of Night.2006.BDRip-AVC.WazZzuP
Encoded date : UTC 2017-01-05 13:42:27
Writing application : mkvmerge v9.4.2 ('So High') 32bit
Writing library : libebml v1.3.4 + libmatroska v1.4.5
Attachments : poster

Video
ID : 1
Format : AVC
Format/Info : Advanced Video Codec
Format profile : High@L4.1
Format settings, CABAC : Yes
Format settings, ReFrames : 12 frames
Codec ID : V_MPEG4/ISO/AVC
Duration : 1 h 53 min
Bit rate : 4 022 kb/s
Width : 1 152 pixels
Height : 480 pixels
Display aspect ratio : 2.40:1
Frame rate mode : Constant
Frame rate : 23.976 (24000/1001) FPS
Color space : YUV
Chroma subsampling : 4:2:0
Bit depth : 8 bits
Scan type : Progressive
Bits/(Pixel*Frame) : 0.303
Stream size : 3.18 GiB (60%)
Title : 30 Days of Night / 30 дней ночи
Writing library : x264 core 148 r2744kMod b97ae06
Encoding settings : cabac=1 / ref=12 / deblock=1:-2:-2 / analyse=0x3:0x133 / me=umh / subme=11 / psy=1 / fade_compensate=0.00 / psy_rd=0.90:0.10 / mixed_ref=1 / me_range=48 / chroma_me=1 / trellis=2 / 8x8dct=1 / cqm=0 / deadzone=21,11 / fast_pskip=0 / chroma_qp_offset=-3 / threads=3 / lookahead_threads=1 / sliced_threads=0 / nr=0 / decimate=1 / interlaced=0 / bluray_compat=0 / constrained_intra=0 / bframes=16 / b_pyramid=2 / b_adapt=2 / b_bias=0 / direct=1 / weightb=1 / open_gop=0 / weightp=2 / keyint=250 / keyint_min=23 / scenecut=40 / intra_refresh=0 / rc_lookahead=40 / rc=crf / mbtree=0 / crf=19.1000 / qcomp=0.70 / qpmin=10 / qpmax=69 / qpstep=4 / vbv_maxrate=14000 / vbv_bufsize=14000 / crf_max=0.0 / nal_hrd=none / filler=0 / ip_ratio=1.30 / pb_ratio=1.20 / aq=2:1.10
Language : English
Default : Yes
Forced : No
Color range : Limited
Matrix coefficients : BT.709

Audio #1
ID : 2
Format : AC-3
Format/Info : Audio Coding 3
Mode extension : CM (complete main)
Format settings, Endianness : Big
Codec ID : A_AC3
Duration : 1 h 53 min
Bit rate mode : Constant
Bit rate : 448 kb/s
Channel(s) : 6 channels
Channel positions : Front: L C R, Side: L R, LFE
Sampling rate : 48.0 kHz
Frame rate : 31.250 FPS (1536 spf)
Compression mode : Lossy
Stream size : 362 MiB (7%)
Title : Полное дублирование
Language : Russian
Default : Yes
Forced : No

Audio #2
ID : 3
Format : AC-3
Format/Info : Audio Coding 3
Mode extension : CM (complete main)
Format settings, Endianness : Big
Codec ID : A_AC3
Duration : 1 h 53 min
Bit rate mode : Constant
Bit rate : 448 kb/s
Channel(s) : 6 channels
Channel positions : Front: L C R, Side: L R, LFE
Sampling rate : 48.0 kHz
Frame rate : 31.250 FPS (1536 spf)
Compression mode : Lossy
Stream size : 362 MiB (7%)
Title : Профессиональный многоголсый [Киномания]
Language : Russian
Default : No
Forced : No

Audio #3
ID : 4
Format : AC-3
Format/Info : Audio Coding 3
Mode extension : CM (complete main)
Format settings, Endianness : Big
Codec ID : A_AC3
Duration : 1 h 53 min
Bit rate mode : Constant
Bit rate : 448 kb/s
Channel(s) : 6 channels
Channel positions : Front: L C R, Side: L R, LFE
Sampling rate : 48.0 kHz
Frame rate : 31.250 FPS (1536 spf)
Compression mode : Lossy
Stream size : 362 MiB (7%)
Title : Авторский одноголосый [Немахов]
Language : Russian
Default : No
Forced : No

Audio #4
ID : 5
Format : AC-3
Format/Info : Audio Coding 3
Mode extension : CM (complete main)
Format settings, Endianness : Big
Codec ID : A_AC3
Duration : 1 h 53 min
Bit rate mode : Constant
Bit rate : 448 kb/s
Channel(s) : 6 channels
Channel positions : Front: L C R, Side: L R, LFE
Sampling rate : 48.0 kHz
Frame rate : 31.250 FPS (1536 spf)
Compression mode : Lossy
Stream size : 362 MiB (7%)
Title : Авторский одноголосый [Строев]
Language : Russian
Default : No
Forced : No

Audio #5
ID : 6
Format : AC-3
Format/Info : Audio Coding 3
Mode extension : CM (complete main)
Format settings, Endianness : Big
Codec ID : A_AC3
Duration : 1 h 53 min
Bit rate mode : Constant
Bit rate : 448 kb/s
Channel(s) : 6 channels
Channel positions : Front: L C R, Side: L R, LFE
Sampling rate : 48.0 kHz
Frame rate : 31.250 FPS (1536 spf)
Compression mode : Lossy
Stream size : 362 MiB (7%)
Title : Авторский одноголосый [Есарёв]
Language : Russian
Default : No
Forced : No

Audio #6
ID : 7
Format : AC-3
Format/Info : Audio Coding 3
Mode extension : CM (complete main)
Format settings, Endianness : Big
Codec ID : A_AC3
Duration : 1 h 53 min
Bit rate mode : Constant
Bit rate : 448 kb/s
Channel(s) : 6 channels
Channel positions : Front: L C R, Side: L R, LFE
Sampling rate : 48.0 kHz
Frame rate : 31.250 FPS (1536 spf)
Compression mode : Lossy
Stream size : 362 MiB (7%)
Language : English
Default : No
Forced : No

Text #1
ID : 8
Format : UTF-8
Codec ID : S_TEXT/UTF8
Codec ID/Info : UTF-8 Plain Text
Duration : 1 h 48 min
Bit rate : 43 b/s
Count of elements : 867
Stream size : 34.3 KiB (0%)
Title : R5, полные
Language : Russian
Default : No
Forced : No

Text #2
ID : 9
Format : UTF-8
Codec ID : S_TEXT/UTF8
Codec ID/Info : UTF-8 Plain Text
Duration : 1 h 48 min
Bit rate : 40 b/s
Count of elements : 765
Stream size : 32.0 KiB (0%)
Title : Киномания, полные
Language : Russian
Default : No
Forced : No

Text #3
ID : 10
Format : UTF-8
Codec ID : S_TEXT/UTF8
Codec ID/Info : UTF-8 Plain Text
Duration : 1 h 41 min
Bit rate : 27 b/s
Count of elements : 739
Stream size : 20.4 KiB (0%)
Language : English
Default : No
Forced : No
Encoding video to: D:DCFWazZzuP30 Days of Night.2006.BDRip-AVC.WazZzuP.mkv
x264 Q19.1 1152x480 23.976fps (162695 frames)

x264.exe: --crf 19.1 --preset medium --profile high --level 4.1 --ref 12 --aq-mode 2 --aq-strength 1.1 --deblock -2:-2 --merange 48 --bframes 16 --b-adapt 2 --trellis 2 --no-fast-pskip --qpmin 10 --psy-rd 0.90:0.10 --qcomp 0.70 --subme 11 --me umh --no-mbtree --ipratio 1.30 --pbratio 1.20 --colormatrix bt709 --vbv-bufsize 14000 --vbv-maxrate 14000 --partitions all --ssim --sar 1:1 --output "D:DCFWazZzuP30 Days of Night.2006.BDRip-AVC.WazZzuP.mkv" "D:Temp018.avs"

avs [info]: 1152x480p 1:1 @ 24000/1001 fps (cfr)
x264 [warning]: --ssim used with psy on: results will be invalid!
x264 [warning]: --tune ssim should be used if attempting to benchmark ssim!
x264 [info]: using SAR=1/1
x264 [info]: using cpu capabilities: MMX2 SSE2Fast SSSE3 SSE4.1 Cache64
x264 [info]: profile High, level 4.1
x264 [info]: cabac=1 ref=12 deblock=1:-2:-2 analyse=0x3:0x133 me=umh subme=11 psy=1 fade_compensate=0.00 psy_rd=0.90:0.10 mixed_ref=1 me_range=48 chroma_me=1 trellis=2 8x8dct=1 cqm=0 deadzone=21,11 fast_pskip=0 chroma_qp_offset=-3 threads=3 lookahead_threads=1 sliced_threads=0 nr=0 decimate=1 interlaced=0 bluray_compat=0 constrained_intra=0 bframes=16 b_pyramid=2 b_adapt=2 b_bias=0 direct=1 weightb=1 open_gop=0 weightp=2 keyint=250 keyint_min=23 scenecut=40 intra_refresh=0 rc_lookahead=40 rc=crf mbtree=0 crf=19.1000 qcomp=0.70 qpmin=10 qpmax=69 qpstep=4 vbv_maxrate=14000 vbv_bufsize=14000 crf_max=0.0 nal_hrd=none filler=0 ip_ratio=1.30 pb_ratio=1.20 aq=2:1.10
x264 [info]: frame I:1059 Avg QP:16.12 size: 67030
x264 [info]: frame P:31183 Avg QP:17.57 size: 34419
x264 [info]: frame B:130453 Avg QP:19.32 size: 17377
x264 [info]: consecutive B-frames: 1.9% 1.9% 5.2% 11.9% 14.7% 39.0% 7.2% 5.5% 2.5% 1.8% 2.5% 3.0% 1.5% 0.9% 0.2% 0.2% 0.1%
x264 [info]: mb I I16..4: 12.9% 72.5% 14.6%
x264 [info]: mb P I16..4: 2.1% 17.7% 1.5% P16..4: 28.0% 33.9% 10.5% 1.3% 0.1% skip: 5.0%
x264 [info]: mb B I16..4: 0.2% 4.3% 0.2% B16..8: 37.8% 20.9% 4.0% direct: 6.6% skip:26.1% L0:45.4% L1:44.6% BI:10.0%
x264 [info]: 8x8 transform intra:86.6% inter:56.0%
x264 [info]: coded y,uvDC,uvAC intra: 96.4% 68.8% 43.3% inter: 33.0% 12.7% 0.9%
x264 [info]: i16 v,h,dc,p: 5% 3% 26% 65%
x264 [info]: i8 v,h,dc,ddl,ddr,vr,hd,vl,hu: 7% 7% 15% 10% 13% 12% 12% 11% 13%
x264 [info]: i4 v,h,dc,ddl,ddr,vr,hd,vl,hu: 7% 6% 7% 10% 17% 14% 14% 11% 14%
x264 [info]: i8c dc,h,v,p: 34% 32% 19% 15%
x264 [info]: Weighted P-Frames: Y:7.8% UV:4.0%
x264 [info]: ref P L0: 43.9% 6.7% 18.2% 7.8% 6.2% 4.4% 3.9% 2.1% 2.0% 1.6% 1.5% 1.4% 0.1% 0.0%
x264 [info]: ref B L0: 68.5% 12.8% 6.9% 3.5% 2.5% 2.0% 1.5% 0.9% 0.8% 0.5% 0.2%
x264 [info]: ref B L1: 92.6% 7.4%
x264 [info]: SSIM Mean Y:0.9762231 (16.238db)
x264 [info]: kb/s:4021.59
ЦитатаКто-то писал:
Субтитры с сайта HQCLUB. Все дорожки кроме оригинальной с раздачи Just_TeMa (рутрекер). Частотный срез дороги Дениса Строева ~18KHz, что не соответствует заявленному битрейту 448 kbps (на сколько я могу судить), лучше я не нашел, поэтому оставил это на совести ее автора=) Тем не менее смотреть рекомендую именно с ней.
Релиз от:
Автор рипа: DCF
Аватара пользователя
Gogen
Уважаемый Релизёр-Корсар
 
Месяцев на трекере: 7Месяцев на трекере: 7Месяцев на трекере: 7Месяцев на трекере: 7Месяцев на трекере: 7Месяцев на трекере: 7Месяцев на трекере: 7
 

Награды: 2
За отличные раздачи (2)
  • Торрент
Для скачивания торрента необходимо зарегистрироваться или войти на трекер.

Вернуться в Зарубежное кино (2001-2010)



мониторинг сайтов