logo
Международный русскоязычный
торрент-трекер
Menu

Doublon
Поделиться с друзьями: 
Голосуй за Корсар и получи 150 дублонов
Рейтинг торрент трекеров - UpTracker.ru

12 стульев (1971, комедия, HDTVRip 720p) - KORSAR

Сообщение filbi1976 » 22 дек 2016, 23:15


Название: 12 стульев
Год выхода: 1971
Жанр: комедия
Режиссер: Леонид Гайдай
В ролях: Арчил Гомиашвили, Сергей Филиппов, Михаил Пуговкин, Наталья Крачковская, Наталья Воробьева, Гликерия Богданова-Чеснокова, Нина Гребешкова, Юрий Никулин, Наталья Варлей, Клара Румянов

Описание: Во время революции и последовавшего за ней краткого периода военного коммунизма многие прятали свои ценности как можно надежнее. И вот Ипполит Матвеевич Воробьянинов, бывший Старгородский предводитель дворянства и светский лев, а ныне скромный делопроизводитель ЗАГСа, узнает от умирающей тещи, что некогда она спрятала свои бриллианты и жемчуга в общей сложности на 150 000 золотых рублей под обивку одного из двенадцати стульев гостиного гарнитура работы известного мастера Гамбса.Бросив все, Воробьянинов бросается на поиски стульев, в чем ему, конечно же, небескорыстно, берется помочь молодой авантюрист, 'великий комбинатор' Остап Бендер. Найти следы разрозненного гарнитура непросто. Не облегчает положения и то, что перед смертью теща Воробьянинова открыла тайну сокровищ и своему исповеднику, отцу Федору, всю жизнь мечтавшему о собственном свечном заводике в Самаре

Выпущено: СССР
Продолжительность: 01:16:58 + 01:15:37

#7#7

Файл
Кодек: х264
Качество: HDTVRip 720p
Видео: MPEG-4 AVC, 952x720, 25 fps, ~6000 Кбит/с
Звук: AC3, 6 ch, 448 Кбит/с, AC3, 1 ch, 256 Кбит/с


  • x264 [info]: frame I:704 Avg QP:18.61 size:127198
  • x264 [info]: frame P:35570 Avg QP:20.28 size: 58064
  • x264 [info]: frame B:79184 Avg QP:22.02 size: 13287
=============================================================================
Общее
Уникальный идентификатор : 252893872965179737378087119546363892840 (0xBE419698D5A4F0BEAE62C9F93D4B5468)
Полное имя : R:\МОИ РИПЫ\12 стульев_1971-HDTVRip 720p\Стулья-1.mkv
Формат : Matroska
Версия формата : Version 2
Размер файла : 3,37 Гбайт
Продолжительность : 1 ч. 16 м.
Общий поток : 6261 Кбит/сек
Дата кодирования : UTC 2016-12-22 19:42:22
Программа кодирования : mkvmerge v5.8.0 ('No Sleep / Pillow') built on Sep 2 2012 15:37:04
Библиотека кодирования : libebml v1.2.3 + libmatroska v1.3.0

Видео
Идентификатор : 1
Формат : AVC
Формат/Информация : Advanced Video Codec
Профиль формата : High@L4.1
Параметр CABAC формата : Да
Параметр ReFrames формата : 12 кадров
Идентификатор кодека : V_MPEG4/ISO/AVC
Продолжительность : 1 ч. 16 м.
Битрейт : 5555 Кбит/сек
Ширина : 952 пикселя
Высота : 720 пикселей
Соотношение сторон : 4:3
Режим частоты кадров : Постоянный
Частота кадров : 25,000 кадров/сек
Цветовое пространство : YUV
Субдискретизация насыщенности : 4:2:0
Битовая глубина : 8 бит
Тип развёртки : Прогрессивная
Бит/(Пиксели*Кадры) : 0.324
Размер потока : 2,92 Гбайт (87%)
Заголовок : korsar.tv
Библиотека кодирования : x264 core 148 r2721kMod 72d53ab
Настройки программы : cabac=1 / ref=12 / deblock=1:-2:-2 / analyse=0x3:0x133 / me=umh / subme=10 / psy=1 / fade_compensate=0.00 / psy_rd=0.95:0.07 / mixed_ref=1 / me_range=32 / chroma_me=1 / trellis=2 / 8x8dct=1 / cqm=0 / deadzone=21,11 / fast_pskip=0 / chroma_qp_offset=-3 / threads=12 / lookahead_threads=2 / sliced_threads=0 / nr=0 / decimate=0 / interlaced=0 / bluray_compat=0 / constrained_intra=0 / fgo=0 / bframes=9 / b_pyramid=2 / b_adapt=2 / b_bias=0 / direct=3 / weightb=1 / open_gop=0 / weightp=2 / keyint=250 / keyint_min=25 / scenecut=40 / intra_refresh=0 / rc_lookahead=40 / rc=2pass / mbtree=0 / bitrate=5555 / ratetol=1.0 / qcomp=0.63 / qpmin=0 / qpmax=39 / qpstep=4 / cplxblur=20.0 / qblur=0.5 / vbv_maxrate=50000 / vbv_bufsize=62500 / nal_hrd=none / filler=0 / ip_ratio=1.20 / pb_ratio=1.30 / aq=2:0.80
Язык : English
Default : Да
Forced : Нет
Цветовой диапазон : Limited
Основные цвета : BT.709
Характеристики трансфера : BT.709
Коэффициенты матрицы : BT.709

Аудио #1
Идентификатор : 2
Формат : AC-3
Формат/Информация : Audio Coding 3
Расширение режима : CM (complete main)
Параметр Endianness формата : Big
Идентификатор кодека : A_AC3
Продолжительность : 1 ч. 16 м.
Вид битрейта : Постоянный
Битрейт : 448 Кбит/сек
Каналы : 6 каналов
Расположение каналов : Front: L C R, Side: L R, LFE
Частота : 48,0 КГц
Частота кадров : 31,250 кадров/сек (1536 spf)
Битовая глубина : 16 бит
Метод сжатия : С потерями
Задержка видео : 1 с. 993 мс.
Размер потока : 247 Мбайт (7%)
Язык : Russian
Default : Да
Forced : Нет

Аудио #2
Идентификатор : 3
Формат : AC-3
Формат/Информация : Audio Coding 3
Расширение режима : CM (complete main)
Параметр Endianness формата : Big
Идентификатор кодека : A_AC3
Продолжительность : 1 ч. 16 м.
Вид битрейта : Постоянный
Битрейт : 256 Кбит/сек
Каналы : 1 канал
Расположение каналов : Front: C
Частота : 48,0 КГц
Частота кадров : 31,250 кадров/сек (1536 spf)
Битовая глубина : 16 бит
Метод сжатия : С потерями
Задержка видео : 2 с. 57 мс.
Размер потока : 141 Мбайт (4%)
Язык : Russian
Default : Нет
Forced : Нет

Меню
00:00:00.000 : en:Chapter 1
00:06:12.600 : en:Chapter 2
00:11:37.800 : en:Chapter 3
00:16:57.600 : en:Chapter 4
00:25:10.800 : en:Chapter 5
00:36:43.200 : en:Chapter 6
00:42:31.800 : en:Chapter 7
00:46:55.800 : en:Chapter 8
00:52:17.400 : en:Chapter 9
01:01:01.800 : en:Chapter 10
01:06:59.400 : en:Chapter 11
01:09:06.600 : en:Chapter 12

Аватара пользователя
filbi1976
Администратор-Корсар
 
 

Награды: 43
За отличные раздачи и качество (32) Верный Сид (8) За участие в конкурсах (1)
Раздачи группы KORSAR разрешено перезаливать спустя сутки после публикации
  • Торрент
Для скачивания торрента необходимо зарегистрироваться или войти на трекер.

Сообщение filbi1976 » 22 дек 2016, 23:17

Для ориентира сделал сравнения с этим шедевром. :hi:
http://screenshotcomparison.com/compari ... /picture:0
Аватара пользователя
filbi1976
Администратор-Корсар
 
 

Награды: 43
За отличные раздачи и качество (32) Верный Сид (8) За участие в конкурсах (1)

Сообщение verybigpapa » 23 дек 2016, 00:16

Огромное спасибо, уважаемый filbi1976. :hi:
Улыбайтесь, господа! Улыбайтесь!
Аватара пользователя
verybigpapa
Заслуженный Корсар-Вип
 
 

Награды: 29
За помощь проекту (12) Лучший по количеству кубков (7) За отличные комментарии (4) Верный Сид (6)

Сообщение bagrad » 23 дек 2016, 00:32

Спасибо большое, Сергей! :hi:
Последний раз редактировалось bagrad 23 дек 2016, 00:47, всего редактировалось 1 раз.
Dum spíro, spéro!
Аватара пользователя
bagrad
Заслуженный Корсар-Вип
 
 

Награды: 17
За помощь проекту (2) Лучший по количеству кубков (9) За отличные комментарии (1) Верный Сид (5)

Сообщение Digor » 23 дек 2016, 00:37

во, вот это то. что надо!
Спасибо огромное, Сергей! :hi: :drinks:
Аватара пользователя
Digor
Главный Модератор-Корсар
 
 

Награды: 13
За помощь проекту (5) Лучший по количеству кубков (1) Верный Сид (5)

Сообщение mister.hats » 23 дек 2016, 11:10

Спасибо Сереж :drinks:

Тот кто не с нами, тот против нас
Аватара пользователя
mister.hats
Заслуженный Корсар-Вип
 
 

Награды: 38
За помощь проекту (4) Лучший по количеству кубков (8) За отличные раздачи и качество (18) За подробное оформление раздач (1) За отличные комментарии (1) Верный Сид (6)

Сообщение filbi1976 » 23 дек 2016, 13:46

Всем пожалуйста! :hi:
Аватара пользователя
filbi1976
Администратор-Корсар
 
 

Награды: 43
За отличные раздачи и качество (32) Верный Сид (8) За участие в конкурсах (1)

Сообщение 1WANT » 24 дек 2016, 20:52

Просмотрел, чуть не пропустил... Спасибо, Сергей! :hi: :good: :drinks:
Многая знания дают многая беды...
Аватара пользователя
1WANT
Заслуженный Корсар-Вип
 
 

Награды: 9
За помощь проекту (3) За отличные комментарии (1) Верный Сид (5)

Сообщение Kottitik » 25 май 2018, 19:26

Спасибо! :good:
Аватара пользователя
Kottitik
Корсар
 
 

Награды: 1
Верный Сид (1)


Вернуться в Кино времён СССР (HD Video)



Uptime по данным Ping-Admin.Ru - сервиса мониторинга доступности сайтов
Рейтинг@Mail.ru